Holly Marie C... | Orange is the New Black Season 6 (S06) 1080p 5.1 - 2.0 x264 Phun Psyz | The Case-Book of Sherlock H...

Скачать порно через торрент [PJGirls.com] Gina Devine - Wet Pleasure UnionPeer.org бесплатно онлайн HD качество

Скачать новое порно 2015, 2014 новинки через торрент UnionPeer.org

Порно торрент бесплатно ЮнионПир.орг

Статистика раздачи
Размер:  894 MB   |    Зарегистрирован:  4 года 9 месяцев   |    .torrent скачан:  942 раза   |   
Раздают:  1  
   
загрузка...
 
Автор Сообщение

LinGr

avatar LinGr


Gina Devine - Wet Pleasure
PJGirls.com 2013 г.
Solo, Erotic, Masturbation, Gaping, Fisting, Close Ups, Breasts, Shaved, Brunettes

Тип HD видео: 1080p
Формат видео: MPEG
Видео кодек: MPEG2
Аудио кодек: MPEG Audio

Продолжительность: 00:10:11
Видео: MPEG Video (MPEG Video 2), 12.3 Mbps, 25.000 fps
Аудио: MPEG Audio (MPEG Audio 2), 128 Kbps, 48.0 KHz
Format : MPEG-PS
File size : 894 MiB
Duration : 10mn 11s
Overall bit rate : 12.3 Mbps

Video
ID : 224 (0xE0)
Format : MPEG Video
Format version : Version 2
Format profile : [email protected]
Format settings, BVOP : Yes
Format settings, Matrix : Default
Duration : 10mn 11s
Bit rate mode : Variable
Bit rate : 11.7 Mbps
Nominal bit rate : 15.0 Mbps
Width : 1 920 pixels
Height : 1 080 pixels
Display aspect ratio : 16:9
Frame rate : 25.000 fps
Standard : Component
Resolution : 8 bits
Colorimetry : 4:2:0
Scan type : Interlaced
Scan order : Top Field First
Bits/(Pixel*Frame) : 0.225
Stream size : 850 MiB (95%)

Audio
ID : 192 (0xC0)
Format : MPEG Audio
Format version : Version 1
Format profile : Layer 2
Mode : Joint stereo
Duration : 10mn 10s
Bit rate mode : Constant
Bit rate : 128 Kbps
Channel(s) : 2 channels
Sampling rate : 48.0 KHz
Stream size : 9.32 MiB (1%)


Трекер:  [ 17-Ноя-2013 17:16 ]

  

Скачать .torrent

Размер .torrent файла 18 KB


Размер: 894 MB
Хэш (hash) релиза: d7f5f59fdc6a5ba463ab49270ecb130ebe0211a7

Еще никто не оставлял запись к записи скачать торрент [PJGirls.com] Gina Devine - Wet Pleasure . Будь первым!

!Обратная связь