Скачать порно через торрент [PJGirls.com] Gina Devine & Kristina - Fisting Game UnionPeer.org бесплатно онлайн HD качество

Скачать новое порно 2015, 2014 новинки через торрент UnionPeer.org

Порно торрент бесплатно ЮнионПир.орг

Статистика раздачи
Размер:  944 MB   |    Зарегистрирован:  5 лет   |    .torrent скачан:  1146 раз   |   
Раздают:  1  
   
загрузка...
 
Автор Сообщение

LinGr

avatar LinGr


Gina Devine & Kristina - Fisting Game
PJGirls.com 2013 г.
All Girl, Fisting, Gaping, Close Ups, Breasts, Shaved


Тип HD видео: 1080p
Формат видео: MPEG
Видео кодек: MPEG2
Аудио кодек: MPEG Audio

Продолжительность: 00:10:43
Видео: MPEG Video (MPEG Video 2), 12.3 Mbps, 25.000 fps
Аудио: MPEG Audio (MPEG Audio 2), 128 Kbps, 48.0 KHz
Format : MPEG-PS
File size : 944 MiB
Duration : 10mn 43s
Overall bit rate : 12.3 Mbps

Video
ID : 224 (0xE0)
Format : MPEG Video
Format version : Version 2
Format profile : Main@High
Format settings, BVOP : Yes
Format settings, Matrix : Default
Duration : 10mn 43s
Bit rate mode : Variable
Bit rate : 11.7 Mbps
Nominal bit rate : 15.0 Mbps
Width : 1 920 pixels
Height : 1 080 pixels
Display aspect ratio : 16:9
Frame rate : 25.000 fps
Standard : Component
Resolution : 8 bits
Colorimetry : 4:2:0
Scan type : Interlaced
Scan order : Top Field First
Bits/(Pixel*Frame) : 0.225
Stream size : 896 MiB (95%)

Audio
ID : 192 (0xC0)
Format : MPEG Audio
Format version : Version 1
Format profile : Layer 2
Mode : Joint stereo
Duration : 10mn 43s
Bit rate mode : Constant
Bit rate : 128 Kbps
Channel(s) : 2 channels
Sampling rate : 48.0 KHz
Stream size : 9.82 MiB (1%)


Трекер:  [ 15-Ноя-2013 21:07 ]

  

Скачать .torrent

Размер .torrent файла 19 KB


Размер: 944 MB
Хэш (hash) релиза: 668fbe114831494022fc47f42774eb51848164f6

Еще никто не оставлял запись к записи скачать торрент [PJGirls.com] Gina Devine & Kristina - Fisting Game . Будь первым!

!Обратная связь
Höchster Preis | Vampire Cleanup Department | La Chute de Sparte