Скачать порно через торрент [PJGirls.com] Laura - Bathtub Relax UnionPeer.org бесплатно онлайн HD качество

Скачать новое порно 2015, 2014 новинки через торрент UnionPeer.org

Порно торрент бесплатно ЮнионПир.орг

Статистика раздачи
Размер:  1.9 GB   |    Зарегистрирован:  5 лет   |    .torrent скачан:  638 раз   |   
Раздают:  1  
   
загрузка...
 
Автор Сообщение

LinGr

avatar LinGr


Laura - Bathtub Relax
PJGirls.com 2013 г.
Solo, Erotic, Masturbation, Gaping, Fingering, Sex Toys, Close Ups, Breasts, Shaved

Тип HD видео: 1080p
Формат видео: MPEG
Видео кодек: MPEG2
Аудио кодек: MPEG Audio

Продолжительность: 00:22:06
Видео: MPEG Video (MPEG Video 2), 12.3 Mbps, 25.000 fps
Аудио: MPEG Audio (MPEG Audio 2), 128 Kbps, 48.0 KHz
Format : MPEG-PS
File size : 1.90 GiB
Duration : 22mn 6s
Overall bit rate : 12.3 Mbps

Video
ID : 224 (0xE0)
Format : MPEG Video
Format version : Version 2
Format profile : Main@High
Format settings, BVOP : Yes
Format settings, Matrix : Default
Duration : 22mn 6s
Bit rate mode : Variable
Bit rate : 11.7 Mbps
Nominal bit rate : 15.0 Mbps
Width : 1 920 pixels
Height : 1 080 pixels
Display aspect ratio : 16:9
Frame rate : 25.000 fps
Standard : Component
Resolution : 8 bits
Colorimetry : 4:2:0
Scan type : Interlaced
Scan order : Top Field First
Bits/(Pixel*Frame) : 0.225
Stream size : 1.80 GiB (95%)

Audio
ID : 192 (0xC0)
Format : MPEG Audio
Format version : Version 1
Format profile : Layer 2
Mode : Joint stereo
Duration : 22mn 6s
Bit rate mode : Constant
Bit rate : 128 Kbps
Channel(s) : 2 channels
Sampling rate : 48.0 KHz
Stream size : 20.2 MiB (1%)


Трекер:  [ 12-Ноя-2013 20:15 ]

  

Скачать .torrent

Размер .torrent файла 19 KB


Размер: 1.9 GB
Хэш (hash) релиза: b94d843f664f0ea1a82e04f65b82df0c702692e9

Еще никто не оставлял запись к записи скачать торрент [PJGirls.com] Laura - Bathtub Relax . Будь первым!

!Обратная связь
Set 10 Druckerpatrone für Canon PGI-2500 XXL Wow Maxify MB 5350 | 10x Universal Capacitive Stylus Touchscreen Pen for ALL Mobile Phones Tablet | Akanesasu Shoujo Saison 1 +Episode 5 (HD 1080p) (VOSTFR) 2-11-2018, 17:13