Watch now! | REGULAMIN | 2018-09-25 02:18

Скачать через торрент Дочь баяниста Фильм бесплатно в хорошем качестве torrent

Скачивайте на UnionPeer.org фильмы через торрент без регистрации. Новинки кино в хорошем качестве через торрент. На UnionPeer.org можно скачать через торрент фильмы 2014 и 2015 годов. Самые новые фильмы.

Скачать торрент Дочь баяниста бесплатно через .torrent фильм мультфильм сериал

Статистика раздачи
Размер:  3.59 GB   |    Зарегистрирован:  6 лет 3 месяца   |    .torrent скачан:  84 раза   |   
Раздают:  1  
   
загрузка...
 
Автор Сообщение

Galfimbul

avatar Galfimbul


Дочь баяниста

Жанр: мелодрама
Год выпуска: 2012
Продолжительность: 01:29:09

Режиссёр: Екатерина Науменко

В ролях: Ольга Сутулова, Андрей Мерзликин, Анна Потебня, Андрей Саминин, Андрей Валенский, Анжелика Гирич, Елена Стефанская, Владимир Мовчан, Василий Домбровский, Андрей Мостренко, Снргей Уманов, Роман Лях

Описание: Музыкант Вася никогда не отличался особым везением. Он один растит дочь Свету, с которой живет в деревне, а постоянной работы у него нет. В эту несладкую жизнь внезапно вмешивается и еще одно печальное обстоятельство - сгорает дом Васи. Чтобы выйти из сложной ситуации, Вася находит подработку и вместе с музыкантами местной филармонии собирается отправиться на гастроли. Но и тут неудача - вместе с дочкой они опаздывают на автобус. Музыканты вернутся через десять дней, но где и как Васе с дочкой жить всё это время? Вася решает, что деньги можно заработать игрой на баяне, а ночевать - на вокзале. Так Вася и Света становятся уличными музыкантами...

Релиз:

Сэмпл: http://multi-up.com/702284

Качество видео: DVB (Express MD1 at 80.0°E)
Формат видео: MPEG-PS

Видео: MPEG 2, 720x576 (4:3), 25.000 fps, 5392 Kbps (0.520 bit/pixel)
Аудио: MP2, 48.0 KHz, 2 ch, 256 Kbps, CBR
  
ОбщееПолное имя : H:\Раздачи\Дочь баяниста.mpgФормат : MPEG-PSРазмер файла : 3,59 ГбайтПродолжительность : 1 ч. 29 м.Режим общего битрейта : ПеременныйОбщий поток : 5762 Кбит/секБиблиотека кодирования : (c) 1998-2011 Womble Multimedia, Inc. / MPEG Video Wizard DVD 5.0.1.100 (03/2011) / Dec 19 2011

ВидеоИдентификатор : 224 (0xE0)Формат : MPEG VideoВерсия формата : Version 2Профиль формата : [email protected]Параметр BVOP формата : ДаПараметр матрицы формата : ВыборочнаяПараметр GOP формата : M=2, N=12Продолжительность : 1 ч. 29 м.Вид битрейта : ПеременныйБитрейт : 5392 Кбит/секМаксимальный битрейт : 10000 Кбит/секШирина : 720 пикселейВысота : 576 пикселейСоотношение сторон : 4:3Частота кадров : 25,000 кадров/секСтандарт вещания : PALЦветовое пространство : YUVСубдискретизация насыщенности : 4:2:0Битовая глубина : 8 битТип развёртки : ЧересстрочнаяПорядок развёртки : Верхнее поле первоеМетод сжатия : С потерямиБит/(Пиксели*Кадры) : 0.520Размер потока : 3,36 Гбайт (94%)Библиотека кодирования : (c) 1998-2011 Womble Multimedia, Inc. / MPEG Video Wizard DVD 5.0.1.100 (03/2011) / Dec 19 2011

АудиоИдентификатор : 192 (0xC0)Формат : MPEG AudioВерсия формата : Version 1Профиль формата : Layer 2Продолжительность : 1 ч. 29 м.Вид битрейта : ПостоянныйБитрейт : 256 Кбит/секКаналы : 2 каналаЧастота : 48,0 КГцМетод сжатия : С потерямиРазмер потока : 163 Мбайт (4%)

Меню


Трекер:  [ 01-Июл-2012 16:04 ]

  

Скачать .torrent

Размер .torrent файла 18 KB


Размер: 3.59 GB
Хэш (hash) релиза: 04b2bf639815e47a78d8e88274029fa05b39cfa1
Подписка на обновления:

Торренты, похожие на Дочь баяниста скачать торрент

Форум Название Автор Размер S L Добавлен
Российские фильмы 2016-2018 (Новинки русского кино) ·· Дочь баяниста (Екатерина Науменко) [2012г., Драма, Комедия, SATRip] Galfimbul 14712455681.37 GB 0 0 1336930200

20:30

13-Май-12

Еще никто не оставлял запись к записи скачать торрент Дочь баяниста . Будь первым!

!Обратная связь