6 Below: Miracle on the Mountain (2017) WEB-DL.x264-FGT | Corazon de Dragon 4 | Dexter Fletcher

Скачать через торрент Из одной комнаты бесплатно Аниме Все серии на русском torrent

Статистика раздачи
Размер:  301 MB   |    Зарегистрирован:  2 месяца 22 дня   |    .torrent скачан:  20 раз   |   
Раздают:  1  
   
загрузка...
 
Автор Сообщение

Galfimbul

avatar Galfimbul



Страна: Япония
Год выпуска: 2018
Жанр: повседневность
Тип: TV
Продолжительность: 12 эп. по 4 мин
Режиссер: Уэда Синъитиро
Студия:

Описание: Три истории, три девушки, три времени и одно место действия - обычная комната в жилом доме.
Доп. информация: World-art
Качество: WEBRip
Тип релиза: Без хардсаба
Формат видео: MKV
Наличие линковки: Нет
Релиз/Автор рипа: [HorribleSubs]
Видео: x264, V_MPEG4, 8bit, 1920x1080, ~3712 Kbps, 23.976 fps
Аудио: JAP(int); AAC, 44.1kHz, ~128Kbps, 2ch
Субтитры: RUS(ext); ASS; Перевод: [SovetRomantica] Перевод: Air; Редактура: guide dog
Субтитры 2: ENG(int); ASS; Перевод: [HorribleSubs]
ОбщееУникальный идентификатор : 223528354821313530937869926437077560858 (0xA829FEC53B00A4BC65F9380D3BFEAE1A)Полное имя : D:\Новая папка\[HorribleSubs] One Room S2 - 01 [1080p].mkvФормат : MatroskaВерсия формата : Version 4 / Version 2Размер файла : 110 МбайтПродолжительность : 4 м. 0 с.Общий поток : 3849 Кбит/секДата кодирования : UTC 2018-07-26 14:28:01Программа кодирования : mkvmerge v25.0.0 ('Prog Noir') 64-bitБиблиотека кодирования : libebml v1.3.6 + libmatroska v1.4.9Attachments : OpenSans-Semibold.ttf

ВидеоИдентификатор : 1Формат : AVCФормат/Информация : Advanced Video CodecПрофиль формата : [email protected]Настройки формата : CABAC / 4 Ref FramesПараметр CABAC формата : ДаПараметр RefFrames формата : 4 кадраИдентификатор кодека : V_MPEG4/ISO/AVCПродолжительность : 4 м. 0 с.Битрейт : 3712 Кбит/секШирина : 1920 пикселейВысота : 1080 пикселейСоотношение сторон : 16:9Режим частоты кадров : ПостоянныйЧастота кадров : 23,976 (24000/1001) кадра/секЦветовое пространство : YUVСубдискретизация насыщенности : 4:2:0Битовая глубина : 8 битТип развёртки : ПрогрессивнаяБит/(Пиксели*Кадры) : 0.075Размер потока : 106 Мбайт (96%)Библиотека кодирования : x264 core 142Настройки программы : cabac=1 / ref=4 / deblock=1:1:1 / analyse=0x3:0x113 / me=umh / subme=8 / psy=1 / psy_rd=0.40:0.00 / mixed_ref=1 / me_range=16 / chroma_me=1 / trellis=1 / 8x8dct=1 / cqm=0 / deadzone=21,11 / fast_pskip=1 / chroma_qp_offset=-2 / threads=12 / lookahead_threads=2 / sliced_threads=0 / nr=0 / decimate=1 / interlaced=0 / bluray_compat=0 / constrained_intra=0 / bframes=3 / b_pyramid=2 / b_adapt=2 / b_bias=0 / direct=3 / weightb=1 / open_gop=0 / weightp=2 / keyint=48 / keyint_min=24 / scenecut=40 / intra_refresh=0 / rc_lookahead=48 / rc=crf / mbtree=1 / crf=15.0 / qcomp=0.60 / qpmin=0 / qpmax=69 / qpstep=4 / vbv_maxrate=8000 / vbv_bufsize=12000 / crf_max=0.0 / nal_hrd=none / filler=0 / ip_ratio=1.40 / aq=1:0.60Default : ДаForced : Нет

АудиоИдентификатор : 2Формат : AACФормат/Информация : Advanced Audio CodecПрофиль формата : LCИдентификатор кодека : A_AAC-2Продолжительность : 4 м. 0 с.Битрейт : 128 Кбит/секКаналы : 2 каналаРасположение каналов : Front: L RЧастота : 44,1 КГцЧастота кадров : 43,066 кадра/сек (1024 SPF)Метод сжатия : С потерямиРазмер потока : 3,67 Мбайт (3%)Язык : JapaneseDefault : ДаForced : Нет

ТекстИдентификатор : 3Формат : ASSИдентификатор кодека : S_TEXT/ASSИдентификатор кодека/Информация : Advanced Sub Station AlphaПродолжительность : 3 м. 45 с.Битрейт : 79 бит/секElementCount : 34Метод сжатия : Без потерьРазмер потока : 2,19 Кбайт (0%)Язык : EnglishDefault : ДаForced : Нет
01. Юи Ханасака на взводе
02. Юи Ханасаку ругают
03. Юи Ханасака дуется


Трекер:  [ 26-Июл-2018 18:01 ]

  

Скачать .torrent

Размер .torrent файла 13 KB


Размер: 301 MB
Хэш (hash) релиза: d513c3332f5c1dc59fbf11ff1452b6c71540e286
Подписка на обновления:

Торренты, похожие на Из одной комнаты скачать торрент

Форум Название Автор Размер S L Добавлен
Аниме | HD Rips ·· Из одной комнаты / One Room [TV+Special] [12+0 из 12+1] [Без хардсаба] [RUS(ext),JAP+SUB] [2017, повседневность, BDRip] [1080p] Galfimbul 59691864865.56 GB 0 0 1506544611

23:36

27-Сен-17

Аниме | Rips ·· Из одной комнаты / One Room [TV] [01 из 12] [Без хардсаба] [RUS(ext), JAP, SUB] [2017, Приключения, Повседневность, HDTVRip] [720p] Galfimbul 8697979683 MB 0 0 1484415854

20:44

14-Янв-17

Аниме | Rips ·· Из одной комнаты / One Room [TV] [01 из 12] [Без хардсаба] [RUS(ext), JAP, SUB] [2017, Приключения, Повседневность, HDTVRip] [720p] Galfimbul 8119920577 MB 0 0 1484274337

05:25

13-Янв-17

Аниме | Rips ·· Из одной комнаты / One Room [TV] [01 из 12] [Без хардсаба] [RUS(ext), JAP, SUB] [2017, Приключения, Повседневность, HDTVRip] [720p] Galfimbul 7541861072 MB 0 0 1484202537

09:28

12-Янв-17

Аниме | HD Rips ·· Легенда одной комнаты / The Tatami Galaxy / Yojouhan Shinwa Taikei [TV] [1-11 из 11][JAP+SUB] [RUS(ext)][03 из 11] [2010 г., комедия, романтика, сейнен, HDTVRip] [720p] [Любительская] Bot 39604516003.69 GB 0 0 1286481162

22:52

7-Окт-10

Еще никто не оставлял запись к записи скачать торрент Из одной комнаты . Будь первым!

!Обратная связь