Скачать через торрент Частное пионерское. Ура, каникулы!!! Фильм бесплатно в хорошем качестве torrent

Скачивайте на UnionPeer.org фильмы через торрент без регистрации. Новинки кино в хорошем качестве через торрент. На UnionPeer.org можно скачать через торрент фильмы 2014 и 2015 годов. Самые новые фильмы.

Скачать торрент Частное пионерское. Ура, каникулы!!! бесплатно через .torrent фильм мультфильм сериал

Статистика раздачи
Размер:  2.13 GB   |    Зарегистрирован:  4 месяца 9 дней   |    .torrent скачан:  42 раза   |   
Раздают:  1  
   
загрузка...
 
Автор Сообщение

Galfimbul

avatar Galfimbul


Частное пионерское. Ура, каникулы!!!
Жанр: приключения
Год выпуска: 2015
Продолжительность: 01:43:55
Режиссёр: Александр Карпиловский
В ролях:
Семен Трескунов, Егор Клинаев, Анфиса Вистингаузен, Екатерина Кузнецова, Марианна Шульц, Сергей Баталов, Илья Ермолов, Василий Мищенко, Тимофей Трибунцев, Александра Ртищева

Описание:
Действие разворачивается в 1979 году. Лучшие друзья Димка, Мишка и Лена едут отдыхать в пионерский лагерь на море, а вместе с ними любимая собака Савва. Всего лишь за одну смену ребятам предстоит узнать, какова цена дружбы, сразиться с бандитами за сокровища, нечаянно отравить директора и заблудиться в пещерах. И, конечно же, их ждет первая любовь 
с настоящими шекспировскими страстями.
Сэмпл | Кинопоиск
Качество видео: WEB-DLRip-AVC
Формат видео: MKV

Видео: x264: (High@L4.1); 1152x482, Display aspect ratio 2.390:1, 24.000 fps, 2551 Kbps
Аудио: AC-3; 16 bits 48 Khz; 5.1ch 384 Kbps; CBR
<div class="sp-wrap">
<div class="sp-head folded">x264 log</div>
<div class="sp-body">avs [info]: 1152x482p 1:1 @ 24/1 fps (cfr)
avs [info]: color matrix: bt709
x264 [info]: using SAR=1/1
x264 [info]: using cpu capabilities: MMX2 SSE2Fast SSSE3 SSE4.2
x264 [info]: profile High, level 4.1

x264 [info]: frame I:1308 Avg QP:16.09 size: 63493
x264 [info]: frame P:39797 Avg QP:17.37 size: 25721
x264 [info]: frame B:108558 Avg QP:18.88 size: 8126
x264 [info]: consecutive B-frames: 2.4% 4.2% 4.7% 77.9% 3.6% 6.0% 0.4% 0.4% 0.1% 0.2% 0.1%
x264 [info]: mb I I16..4: 4.5% 75.0% 20.6%
x264 [info]: mb P I16..4: 0.7% 10.1% 1.8% P16..4: 37.8% 30.8% 15.4% 0.0% 0.0% skip: 3.5%
x264 [info]: mb B I16..4: 0.1% 1.3% 0.3% B16..8: 34.3% 13.8% 3.9% direct: 6.4% skip:39.9% L0:36.4% L1:44.3% BI:19.3%
x264 [info]: 8x8 transform intra:78.3% inter:55.6%
x264 [info]: direct mvs spatial:100.0% temporal:0.0%
x264 [info]: coded y,uvDC,uvAC intra: 86.7% 86.1% 65.7% inter: 25.8% 20.6% 9.9%
x264 [info]: i16 v,h,dc,p: 26% 10% 6% 59%
x264 [info]: i8 v,h,dc,ddl,ddr,vr,hd,vl,hu: 21% 10% 7% 7% 10% 12% 11% 11% 12%
x264 [info]: i4 v,h,dc,ddl,ddr,vr,hd,vl,hu: 28% 7% 3% 7% 12% 12% 11% 9% 10%
x264 [info]: i8c dc,h,v,p: 36% 23% 26% 16%
x264 [info]: Weighted P-Frames: Y:1.9% UV:0.9%
x264 [info]: ref P L0: 54.1% 12.2% 15.1% 4.5% 3.6% 2.4% 2.1% 1.1% 1.1% 0.8% 0.8% 0.7% 0.8% 0.7% 0.0% 0.0%
x264 [info]: ref B L0: 81.7% 8.7% 3.3% 1.6% 1.1% 0.9% 0.7% 0.5% 0.4% 0.4% 0.3% 0.3% 0.2%
x264 [info]: ref B L1: 96.8% 3.2%
264 [info]: kb/s:2551.45

General
Unique ID : 226279962501016799746444511864266316492 (0xAA3BEF80D4B33564BE4F719DAED25ACC)
Complete name : Частное пионерское 2.mkv
Format : Matroska
Format version : Version 2
File size : 2.13 GiB
Duration : 1 h 43 min
Overall bit rate : 2 937 kb/s
Encoded date : UTC 2018-07-10 13:19:05
Writing application : mkvmerge v7.8.0 ('River Man') 32bit built on Mar 27 2015 16:18:02
Writing library : libebml v1.3.1 + libmatroska v1.4.2

Video
ID : 1
Format : AVC
Format/Info : Advanced Video Codec
Format profile : High@L4.1
Format settings, CABAC : Yes
Format settings, ReFrames : 14 frames
Codec ID : V_MPEG4/ISO/AVC
Duration : 1 h 43 min
Bit rate : 2 495 kb/s
Width : 1 152 pixels
Height : 482 pixels
Display aspect ratio : 2.40:1
Frame rate mode : Constant
Frame rate : 24.000 FPS
Color space : YUV
Chroma subsampling : 4:2:0
Bit depth : 8 bits
Scan type : Progressive
Bits/(Pixel*Frame) : 0.187
Stream size : 1.81 GiB (85%)
Title : Частное пионерское 2. Ура, каникулы!!!
Writing library : x264 core 155 r2867+82 a249126 t_mod_Custom_2 [8-bit@all X86]
Encoding settings : cabac=1 / ref=14 / deblock=1:-2:-2 / analyse=0x3:0x113 / me=umh / subme=10 / psy=1 / fade_compensate=0.00 / psy_rd=1.00:0.00 / mixed_ref=1 / me_range=48 / chroma_me=1 / trellis=2 / 8x8dct=1 / cqm=0 / deadzone=21,11 / fast_pskip=0 / chroma_qp_offset=-2 / threads=12 / lookahead_threads=3 / sliced_threads=0 / nr=0 / decimate=0 / interlaced=0 / bluray_compat=0 / constrained_intra=0 / fgo=0 / bframes=10 / b_pyramid=2 / b_adapt=2 / b_bias=0 / direct=3 / weightb=1 / open_gop=0 / weightp=2 / keyint=240 / keyint_min=24 / scenecut=40 / intra_refresh=0 / rc_lookahead=120 / rc=crf / mbtree=0 / crf=18.0000 / qcomp=0.68 / qpmin=0:0:0 / qpmax=69:69:69 / qpstep=4 / vbv_maxrate=62500 / vbv_bufsize=78125 / crf_max=0.0 / nal_hrd=none / filler=0 / ip_ratio=1.25 / pb_ratio=1.20 / aq=3:0.85 / aq-sensitivity=10.00 / aq-factor=1.00:1.00:1.00 / aq2=0 / aq3=0
Language : Russian
Default : Yes
Forced : No
Color range : Limited
Color primaries : BT.709
Transfer characteristics : BT.709
Matrix coefficients : BT.709

Audio
ID : 2
Format : AC-3
Format/Info : Audio Coding 3
Mode extension : CM (complete main)
Format settings, Endianness : Big
Codec ID : A_AC3
Duration : 1 h 43 min
Bit rate mode : Constant
Bit rate : 384 kb/s
Channel(s) : 6 channels
Channel positions : Front: L C R, Side: L R, LFE
Sampling rate : 48.0 kHz
Frame rate : 31.250 FPS (1536 spf)
Compression mode : Lossy
Stream size : 285 MiB (13%)
Title : AC-3; 16 bits 48 Khz; 5.1ch 384 Kbps; CBR
Language : Russian
Default : Yes
Forced : No</div>
</div>

Трекер:  [ 11-Июл-2018 15:54 ]

  

Скачать .torrent

Размер .torrent файла 11 KB


Размер: 2.13 GB
Хэш (hash) релиза: 1d92e5b3f5caf228833c9e3079519560a3af01d4
Подписка на обновления:

Еще никто не оставлял запись к записи скачать торрент Частное пионерское. Ура, каникулы!!! . Будь первым!

!Обратная связь
Photoshop | Guida TV | 144 مسلسلات هندية مسلسل خاني الحلقة 10 العاشرة مدبلجة HD اون لاين مشاهدة مسلسل خاني الحلقة 10 العاشرة مدبلجة HD اون لاين تحميل مسلسل خاني الحلقة 10 العاشرة مدبلجة HD اون لاين