The Leftovers (34) | Dorothy Tree | Farsi/Persian

Скачать через торрент Остров исправления Фильм бесплатно в хорошем качестве torrent

Скачивайте на UnionPeer.org фильмы через торрент без регистрации. Новинки кино в хорошем качестве через торрент. На UnionPeer.org можно скачать через торрент фильмы 2014 и 2015 годов. Самые новые фильмы.

Скачать торрент Остров исправления бесплатно через .torrent фильм мультфильм сериал

Статистика раздачи
Размер:  743 MB   |    Зарегистрирован:  2 месяца 15 дней   |    .torrent скачан:  42 раза   |   
Раздают:  1  
   
загрузка...
 
Автор Сообщение

Galfimbul

avatar Galfimbul


Остров исправления

Страна: Россия
Жанр: комедия
Год выпуска: 2017
Продолжительность: 01:27:53
Субтитры: нет
Режиссер: Анна Протоковило
В ролях: Алексей Маклаков, Сергей Новиков, Олег Майборода, Дмитрий Востриков, Нелли Гатина, Никита Краснояров, Владимир Худоян, Анастасия Алехина, Кристина Холдеева
Описание: Выпускной — это самое светлое и трогательное событие. Так думают все, но только не наши герои. Самые продвинутые в 9 «А» — ди-джей Стас, блогерша Инесса-принцесса и их друзья считают, что на этом празднике должно быть намного веселей. Вместо грустной песни про школу, они включают «хайповый видос», снятый ими про директора школы, и срывают выпускной. Родители «активистов» принимают жесткое решение: отправить провинившихся на лето в деревню работать на фермерском хозяйстве. Мало того, что деревня расположена на острове посреди Оби, откуда так просто не сбежишь, еще и фермер Степаныч, которому им предстоит помогать — бывший военный. Это точно будут незабываемые каникулы…
Качество видео: WEB-DLRip
Формат видео: AVI

Видео: 688x304 (2.26:1), 25 fps, XviD build 73 ~1044 kbps avg, 0.20 bit/pixel
Аудио: 48 kHz, MPEG Layer 3, 2 ch, ~128.00 kbps avg
<div class="post-box-default">
<div class="post-box">Сэмпл</div>
</div>
Формат                                   : AVI
Формат/Информация                        : Audio Video Interleave
Размер файла                             : 743 Мбайт
Продолжительность                        : 1 ч. 27 м.
Общий поток                              : 1182 Кбит/сек
Программа кодирования                    : VirtualDubMod 1.5.10.3 | www.virtualdub-fr.org || (build 2550/release)
Библиотека кодирования                   : VirtualDubMod build 2550/release

Видео
Идентификатор                            : 0
Формат                                   : MPEG-4 Visual
Профиль формата                          : Advanced [email protected]
Настройки формата                        : BVOP1
Параметр BVOP формата                    : 1
Параметр QPel формата                    : Нет
Параметр GMC формата                     : Без точки перехода
Параметр матрицы формата                 : Default (H.263)
Идентификатор кодека                     : XVID
Идентификатор кодека/Подсказка           : XviD
Продолжительность                        : 1 ч. 27 м.
Битрейт                                  : 1045 Кбит/сек
Ширина                                   : 688 пикселей
Высота                                   : 304 пикселя
Соотношение сторон                       : 2,25:1
Частота кадров                           : 25,000 кадров/сек
Цветовое пространство                    : YUV
Субдискретизация насыщенности            : 4:2:0
Битовая глубина                          : 8 бит
Тип развёртки                            : Прогрессивная
Метод сжатия                             : С потерями
Бит/(Пиксели*Кадры)                      : 0.200
Размер потока                            : 657 Мбайт (88%)
Библиотека кодирования                   : XviD 73

Аудио
Идентификатор                            : 1
Формат                                   : MPEG Audio
Версия формата                           : Version 1
Профиль формата                          : Layer 3
Идентификатор кодека                     : 55
Идентификатор кодека/Подсказка           : MP3
Продолжительность                        : 1 ч. 27 м.
Вид битрейта                             : Постоянный
Битрейт                                  : 128 Кбит/сек
Каналы                                   : 2 канала
Частота                                  : 48,0 КГц
Частота кадров                           : 41,667 кадра/сек (1152 SPF)
Метод сжатия                             : С потерями
Размер потока                            : 80,5 Мбайт (11%)
Выравнивание                             : Соединение по промежуткам
Продолжительность промежутка             : 40  мс. (1,00 видеокадр)
Время предзагрузки промежутка            : 504  мс.
Библиотека кодирования                   : LAME3.99r
Настройки программы                      : -m s -V 4 -q 2 -lowpass 17 -b 128


Трекер:  [ 07-Июл-2018 12:54 ]

  

Скачать .torrent

Размер .torrent файла 15 KB


Размер: 743 MB
Хэш (hash) релиза: 46668aa6a4cd1948454b9536b080293e6c1ce943
Подписка на обновления:

Еще никто не оставлял запись к записи скачать торрент Остров исправления . Будь первым!

!Обратная связь