Скачать через торрент День выборов 2 Фильм бесплатно в хорошем качестве torrent

Скачивайте на UnionPeer.org фильмы через торрент без регистрации. Новинки кино в хорошем качестве через торрент. На UnionPeer.org можно скачать через торрент фильмы 2014 и 2015 годов. Самые новые фильмы.

Скачать торрент День выборов 2 бесплатно через .torrent фильм мультфильм сериал

Статистика раздачи
Размер:  746 MB   |    Зарегистрирован:  4 месяца 20 дней   |    .torrent скачан:  54 раза   |   
Раздают:  1  
   
загрузка...
 
Автор Сообщение

Galfimbul

avatar Galfimbul


День выборов 2

Жанр: комедия
Год выпуска: 2016
Продолжительность: 01:44:06

Режиссёр: Александр Баршак

В ролях: Леонид Барац
Александр Демидов
Камиль Ларин
Ростислав Хаит
Нонна Гришаева
Максим Виторган
Василий Уткин
Михаил Ефремов
Александр Самойленко
Алексей Кортнев

Описание: Игорь Цаплин будет избираться на третий срок, а поможет ему в этом уже знакомая зрителю команда пиарщиков.

Доп. информация: http://www.kinopoisk.ru/film/899691/

Сэмпл: http://sendfile.su/1428179

Качество видео: WEB-DLRip найдено в сети
Формат видео: AVI

Видео: 688x288 (2.39:1), 25 fps, XviD build 73 ~863 kbps avg, 0.17 bit/pixel
Аудио: 48 kHz, MPEG Layer 3, 2 ch, ~128.00 kbps avg
ОбщееПолное имя : C:\Den viborov 2 2015 WEB-DLRip 745 MB.aviФормат : AVIФормат/Информация : Audio Video InterleaveРазмер файла : 746 МбайтПродолжительность : 1 ч. 44 м.Общий поток : 1001 Кбит/секПрограмма кодирования : VirtualDubMod 1.5.10.3 | www.virtualdub-fr.org || (build 2550/release)Библиотека кодирования : VirtualDubMod build 2550/release

ВидеоИдентификатор : 0Формат : MPEG-4 VisualПрофиль формата : Advanced Simple@L5Настройки формата : BVOP1 / Custom MatrixПараметр BVOP формата : 1Параметр QPel формата : НетПараметр GMC формата : Без точки переходаПараметр матрицы формата : ВыборочнаяИдентификатор кодека : XVIDИдентификатор кодека/Подсказка : XviDПродолжительность : 1 ч. 44 м.Битрейт : 864 Кбит/секШирина : 688 пикселейВысота : 288 пикселейСоотношение сторон : 2,40:1Частота кадров : 25,000 кадров/секЦветовое пространство : YUVСубдискретизация насыщенности : 4:2:0Битовая глубина : 8 битТип развёртки : ПрогрессивнаяМетод сжатия : С потерямиБит/(Пиксели*Кадры) : 0.174Размер потока : 643 Мбайт (86%)Библиотека кодирования : XviD 73

АудиоИдентификатор : 1Формат : MPEG AudioВерсия формата : Version 1Профиль формата : Layer 3Идентификатор кодека : 55Идентификатор кодека/Подсказка : MP3Продолжительность : 1 ч. 44 м.Вид битрейта : ПостоянныйБитрейт : 128 Кбит/секКаналы : 2 каналаЧастота : 48,0 КГцМетод сжатия : С потерямиРазмер потока : 95,3 Мбайт (13%)Выравнивание : Соединение по промежуткамПродолжительность промежутка : 40 мс. (1,00 видеокадр)Время предзагрузки промежутка : 504 мс.Библиотека кодирования : LAME3.99rНастройки программы : -m s -V 4 -q 2 -lowpass 17 -b 128


Трекер:  [ 30-Июн-2018 03:54 ]

  

Скачать .torrent

Размер .torrent файла 15 KB


Размер: 746 MB
Хэш (hash) релиза: ba53fa1abc0db5865502af481e585523b0176c4c
Подписка на обновления:

Торренты, похожие на День выборов 2 скачать торрент

Форум Название Автор Размер S L Добавлен
Российские фильмы до 2016 ·%· День выборов 2 (Александр Баршак) [2016, комедия, WEB-DLRip] Galfimbul 15546798081.45 GB 0 0 1530318250

03:24

30-Июн-18

Российские фильмы до 2016 ·· День выборов 2 (Александр Баршак) [2016, комедия, WEB-DLRip] Galfimbul 15834255361.47 GB 0 0 1462853229

07:07

10-Май-16

Российские фильмы до 2016 ·· День выборов 2 (Александр Баршак) [2016, Комедия, WEB-DLRip] Galfimbul 783851520748 MB 0 0 1460887159

12:59

17-Апр-16

Российские фильмы до 2016 ·· День выборов 2 (Александр Баршак) [2016, комедия, WEB-DLRip-AVC] Galfimbul 23332356732.17 GB 0 0 1458952570

03:36

26-Мар-16

Российские фильмы 2016-2018 (Новинки русского кино) ·· День выборов 2 (Александр Баршак) [2016, Комедия, WEB-DL 1080p] iTunes Galfimbul 39109426753.64 GB 0 0 1458857710

01:15

25-Мар-16

Российские фильмы 2016-2018 (Новинки русского кино) ·· День выборов 2 (Александр Баршак) [2016, Комедия, WEB-DL 720p] iTunes Galfimbul 33797258143.15 GB 0 0 1458857688

01:14

25-Мар-16

Российские фильмы до 2016 ·· День выборов 2 (Александр Баршак) [2016, комедия, WEB-DLRip] Galfimbul 15684055041.46 GB 0 0 1458851102

23:25

24-Мар-16

Российские фильмы 2016-2018 (Новинки русского кино) ·· День выборов 2 (Александр Баршак) [2016 г., Комедия, WEBRip] Galfimbul 14707404801.37 GB 0 0 1458632910

10:48

22-Мар-16

Еще никто не оставлял запись к записи скачать торрент День выборов 2 . Будь первым!

!Обратная связь
Hänsel und Gretel - Märchen und Geschichten für Kinder | Brüder Grimm | Deine Märchenwelt | The Piano Guys | Mentes criminales