Si c'était à refaire | The Big Bang Theory | 2x8 season x episode Sneaky Pete

Скачать через торрент День выборов 2 Фильм бесплатно в хорошем качестве torrent

Скачивайте на UnionPeer.org фильмы через торрент без регистрации. Новинки кино в хорошем качестве через торрент. На UnionPeer.org можно скачать через торрент фильмы 2014 и 2015 годов. Самые новые фильмы.

Скачать торрент День выборов 2 бесплатно через .torrent фильм мультфильм сериал

Статистика раздачи
Размер:  1.45 GB   |    Зарегистрирован:  19 дней   |    .torrent скачан:  55 раз   |   
Раздают:  1  
   
загрузка...
 
Автор Сообщение

Galfimbul

avatar Galfimbul


День выборов 2

Жанр: комедия
Год выпуска: 2016
Продолжительность: 01:44:06

Режиссёр: Александр Баршак

В ролях: Леонид Барац
Александр Демидов
Камиль Ларин
Ростислав Хаит
Нонна Гришаева
Максим Виторган
Василий Уткин
Михаил Ефремов
Александр Самойленко
Алексей Кортнев

Описание: Игорь Цаплин будет избираться на третий срок, а поможет ему в этом уже знакомая зрителю команда пиарщиков.

Доп. информация: http://www.kinopoisk.ru/film/899691/

Сэмпл: http://sendfile.su/1428178

Качество видео: WEB-DLRip найдено в сети
Формат видео: AVI

Видео: 720x304 (2.37:1), 25 fps, XviD build 73 ~1597 kbps avg, 0.29 bit/pixel
Аудио: 48 kHz, AC3 Dolby Digital, 3/2 (L,C,R,l,r) + LFE ch, ~384 kbps
ОбщееПолное имя : C:\Den viborov 2 2015 WEB-DLRip 1.44 GB.aviФормат : AVIФормат/Информация : Audio Video InterleaveРазмер файла : 1,45 ГбайтПродолжительность : 1 ч. 44 м.Общий поток : 1991 Кбит/секПрограмма кодирования : VirtualDubMod 1.5.10.3 | www.virtualdub-fr.org || (build 2550/release)Библиотека кодирования : VirtualDubMod build 2550/release

ВидеоИдентификатор : 0Формат : MPEG-4 VisualПрофиль формата : Advanced [email protected]Настройки формата : BVOP1 / Custom MatrixПараметр BVOP формата : 1Параметр QPel формата : НетПараметр GMC формата : Без точки переходаПараметр матрицы формата : ВыборочнаяИдентификатор кодека : XVIDИдентификатор кодека/Подсказка : XviDПродолжительность : 1 ч. 44 м.Битрейт : 1597 Кбит/секШирина : 720 пикселейВысота : 304 пикселяСоотношение сторон : 2,35:1Частота кадров : 25,000 кадров/секЦветовое пространство : YUVСубдискретизация насыщенности : 4:2:0Битовая глубина : 8 битТип развёртки : ПрогрессивнаяМетод сжатия : С потерямиБит/(Пиксели*Кадры) : 0.292Размер потока : 1,16 Гбайт (80%)Библиотека кодирования : XviD 73

АудиоИдентификатор : 1Формат : AC-3Формат/Информация : Audio Coding 3Параметр Endianness формата : BigИдентификатор кодека : 2000Продолжительность : 1 ч. 44 м.Вид битрейта : ПостоянныйБитрейт : 384 Кбит/секКаналы : 6 каналовРасположение каналов : Front: L C R, Side: L R, LFEЧастота : 48,0 КГцЧастота кадров : 31,250 кадров/сек (1536 SPF)Битовая глубина : 16 битМетод сжатия : С потерямиРазмер потока : 286 Мбайт (19%)Выравнивание : Разделение по промежуткамПродолжительность промежутка : 40 мс. (1,00 видеокадр)Время предзагрузки промежутка : 500 мс.ServiceKind/String : Complete Main


Трекер:  [ 30-Июн-2018 03:24 ]

  

Скачать .torrent

Размер .torrent файла 15 KB


Размер: 1.45 GB
Хэш (hash) релиза: 6c67cb9eac075a0eb97423f34b11bd07fda318a5
Подписка на обновления:

Торренты, похожие на День выборов 2 скачать торрент

Форум Название Автор Размер S L Добавлен
Российские фильмы до 2016 ·%· День выборов 2 (Александр Баршак) [2016, комедия, WEB-DLRip] Galfimbul 782012416746 MB 0 0 1530320053

03:54

30-Июн-18

Российские фильмы до 2016 ·· День выборов 2 (Александр Баршак) [2016, комедия, WEB-DLRip] Galfimbul 15834255361.47 GB 0 0 1462853229

07:07

10-Май-16

Российские фильмы до 2016 ·· День выборов 2 (Александр Баршак) [2016, Комедия, WEB-DLRip] Galfimbul 783851520748 MB 0 0 1460887159

12:59

17-Апр-16

Российские фильмы до 2016 ·· День выборов 2 (Александр Баршак) [2016, комедия, WEB-DLRip-AVC] Galfimbul 23332356732.17 GB 0 0 1458952570

03:36

26-Мар-16

Российские фильмы 2016-2018 (Новинки русского кино) ·· День выборов 2 (Александр Баршак) [2016, Комедия, WEB-DL 1080p] iTunes Galfimbul 39109426753.64 GB 2 0 1458857710

01:15

25-Мар-16

Российские фильмы 2016-2018 (Новинки русского кино) ·· День выборов 2 (Александр Баршак) [2016, Комедия, WEB-DL 720p] iTunes Galfimbul 33797258143.15 GB 0 0 1458857688

01:14

25-Мар-16

Российские фильмы до 2016 ·· День выборов 2 (Александр Баршак) [2016, комедия, WEB-DLRip] Galfimbul 15684055041.46 GB 0 0 1458851102

23:25

24-Мар-16

Российские фильмы 2016-2018 (Новинки русского кино) ·· День выборов 2 (Александр Баршак) [2016 г., Комедия, WEBRip] Galfimbul 14707404801.37 GB 2 0 1458632910

10:48

22-Мар-16

Еще никто не оставлял запись к записи скачать торрент День выборов 2 . Будь первым!

!Обратная связь