Electro / Electro Funk | 16 Dec 2017 13,950 2,756 10 | Everwood

Скачать через торрент Тетя Маша Фильм бесплатно в хорошем качестве torrent

Скачивайте на UnionPeer.org фильмы через торрент без регистрации. Новинки кино в хорошем качестве через торрент. На UnionPeer.org можно скачать через торрент фильмы 2014 и 2015 годов. Самые новые фильмы.

Скачать торрент Тетя Маша бесплатно через .torrent фильм мультфильм сериал

Статистика раздачи
Размер:  4.55 GB   |    Зарегистрирован:  3 месяца 2 дня   |    .torrent скачан:  54 раза   |   
Раздают:  1  
   
загрузка...
 
Автор Сообщение

Galfimbul

avatar Galfimbul


Тетя Маша



[b]Год выпуска:
2018
Страна: Россия
Жанр: мелодрама
Перевод: Не требуется [Русский]
Продолжительность: 01:30:05
Режиссер: Александр Грабарь
В ролях: Алла Юганова, Александр Константинов, Мария Пирогова, Софья Кравчук, Леонид Улащенко, Ольга Бранкевич, Татьяна Гаркуша, Алеся Пуховая
Описание:
Молодая семья нанимает няню для своей дочки. Они даже не подозревают, что тётя Маша, появившаяся в их доме, страдает душевной болезнью и искренне уверена, что девочка - ее родная дочь...
Качество: HDTV 1080p
Формат: MKV
Видео: AVC, 1920x1080 (16:9), 7050 kbps, 25 fps, 0,136 bpp
Аудио: AC3 / 2.0 / 48 kHz / 192 kbps /




General
Unique ID : 173867946708270478355146203778619442536 (0x82CDBF9D446C5896BCFF05869DDA8568)
Complete name : E:запись с твTyotya masha.2018.HDTV 1080p.by.White Smoke.R.G.Generalfilm.mkv
Format : Matroska
Format version : Version 2
File size : 4.55 GiB
Duration : 1 h 30 min
Overall bit rate mode : Constant
Overall bit rate : 7 229 kb/s
Movie name : Tyotya masha.2018.HDTV 1080p.by.White Smoke.R.G.Generalfilm.mkv
Encoded date : UTC 2018-06-20 11:07:22
Writing application : mkvmerge v7.6.0 ('Garden of Dreams') 32bit built on Feb 11 2015 00:18:47
Writing library : libebml v1.3.1 + libmatroska v1.4.2

Video
ID : 1
Format : AVC
Format/Info : Advanced Video Codec
Format profile : [email protected]
Format settings, CABAC : Yes
Format settings, ReFrames : 3 frames
Format settings, GOP : M=3, N=33
Codec ID : V_MPEG4/ISO/AVC
Duration : 1 h 30 min
Bit rate mode : Constant
Bit rate : 7 051 kb/s
Width : 1 920 pixels
Height : 1 080 pixels
Display aspect ratio : 16:9
Frame rate mode : Constant
Frame rate : 25.000 FPS
Standard : PAL
Color space : YUV
Chroma subsampling : 4:2:0
Bit depth : 8 bits
Scan type : Progressive
Bits/(Pixel*Frame) : 0.136
Stream size : 4.34 GiB (95%)
Default : Yes
Forced : No
Color range : Limited
Color primaries : BT.709
Transfer characteristics : BT.709
Matrix coefficients : BT.709

Audio
ID : 2
Format : AC-3
Format/Info : Audio Coding 3
Mode extension : CM (complete main)
Format settings, Endianness : Big
Codec ID : A_AC3
Duration : 1 h 30 min
Bit rate mode : Constant
Bit rate : 192 kb/s
Channel(s) : 2 channels
Channel positions : Front: L R
Sampling rate : 48.0 kHz
Frame rate : 31.250 FPS (1536 spf)
Compression mode : Lossy
Stream size : 124 MiB (3%)
Default : Yes
Forced : No
Источник http://BlaTor.org

Трекер:  [ 20-Июн-2018 18:40 ]

  

Скачать .torrent

Размер .torrent файла 12 KB


Размер: 4.55 GB
Хэш (hash) релиза: 7fe04bfd105f0abef661b4360348c4f1f47802b7
Подписка на обновления:

Еще никто не оставлял запись к записи скачать торрент Тетя Маша . Будь первым!

!Обратная связь