The Purest Hook (Second Circle Tattoos #3) | Andre the Giant | Claude Lanzmann - Shoah: An Oral History of the Holocaust + more

Скачать через торрент Тренер Фильм бесплатно в хорошем качестве torrent

Скачивайте на UnionPeer.org фильмы через торрент без регистрации. Новинки кино в хорошем качестве через торрент. На UnionPeer.org можно скачать через торрент фильмы 2014 и 2015 годов. Самые новые фильмы.

Скачать торрент Тренер бесплатно через .torrent фильм мультфильм сериал

Статистика раздачи
Размер:  1.41 GB   |    Зарегистрирован:  1 месяц 1 день   |    .torrent скачан:  56 раз   |   
Раздают:  1  
   
загрузка...
 
Автор Сообщение

Galfimbul

avatar Galfimbul



Тренер


Жанр: драма, спорт
Год выпуска: 2018
Продолжительность: 02:12:22
Режиссёр: Данила Козловский
В ролях: Данила Козловский, Владимир Ильин, Андрей Смоляков, Ольга Зуева, Ирина Горбачёва, Виктор Вержбицкий, Мария Лобанова, Павел Ворожцов, Игорь Гордин, Александр Ильин
Описание: Футболист национальной сборной Юрий Столешников в ответственный момент не забивает пенальти. После досадной ошибки Столешников покидает сборную, завершает карьеру и становится тренером маленькой провинциальной команды. Именно с этим клубом Столешникову предстоит совершить чудо и вновь поверить в себя.


Качество видео: WEB-DLRip-AVC / WEB-DL 1080p
Формат видео: MKV
Видео: MPEG-4 AVC, 768x320 (2.40:1), 25.000 fps, ~1303 kbps avg, 0.212 bit/pixel
Аудио: 48 kHz, AC3 Dolby Digital, 2/0 (L,R) ch, ~192 kbps avg
Complete name               : D:\Раздача\Тренер (2018) WEB-DLRip-AVC_ivanes20031987.mkv
Format                      : Matroska
Format version              : Version 2
File size                   : 1.41 GiB
Duration                    : 2 h 12 min
Overall bit rate            : 1 525 kb/s
Movie name                  : Тренер (2018) WEB-DLRip-AVC_ivanes20031987
Encoded date                : UTC 2018-06-15 13:30:03
Writing application         : mkvmerge v4.4.0 ('Die Wiederkehr') сборка от Jan  3 2011 21:40:45
Writing library             : libebml v1.0.0 + libmatroska v1.0.0
Cover                       : Yes
Attachments                 : cover.jpg

Video
ID                          : 1
Format                      : AVC
Format/Info                 : Advanced Video Codec
Format profile              : [email protected]
Format settings, CABAC      : Yes
Format settings, RefFrames  : 14 frames
Codec ID                    : V_MPEG4/ISO/AVC
Duration                    : 2 h 12 min
Bit rate                    : 1 303 kb/s
Width                       : 768 pixels
Height                      : 320 pixels
Display aspect ratio        : 2.40:1
Frame rate mode             : Constant
Frame rate                  : 25.000 FPS
Color space                 : YUV
Chroma subsampling          : 4:2:0
Bit depth                   : 8 bits
Scan type                   : Progressive
Bits/(Pixel*Frame)          : 0.212
Stream size                 : 1.20 GiB (85%)
Title                       : Rip by ivanes20031987
Writing library             : x264 core 155 r2901 7d0ff22
Encoding settings           : cabac=1 / ref=14 / deblock=1:-3:-3 / analyse=0x3:0x113 / me=umh / subme=10 / psy=1 / psy_rd=1.00:0.00 / mixed_ref=1 / me_range=32 / chroma_me=1 / trellis=2 / 8x8dct=1 / cqm=0 / deadzone=21,11 / fast_pskip=0 / chroma_qp_offset=-2 / threads=12 / lookahead_threads=2 / sliced_threads=0 / nr=0 / decimate=0 / interlaced=0 / bluray_compat=0 / constrained_intra=0 / bframes=14 / b_pyramid=2 / b_adapt=2 / b_bias=0 / direct=1 / weightb=1 / open_gop=0 / weightp=2 / keyint=250 / keyint_min=25 / scenecut=40 / intra_refresh=0 / rc_lookahead=60 / rc=crf / mbtree=0 / crf=17.7 / qcomp=0.60 / qpmin=0 / qpmax=69 / qpstep=4 / vbv_maxrate=50000 / vbv_bufsize=62500 / crf_max=0.0 / nal_hrd=none / filler=0 / ip_ratio=1.40 / pb_ratio=1.30 / aq=1:1.00
Default                     : Yes
Forced                      : No

Audio
ID                          : 2
Format                      : AC-3
Format/Info                 : Audio Coding 3
Format settings, Endianness : Big
Codec ID                    : A_AC3
Duration                    : 2 h 12 min
Bit rate mode               : Constant
Bit rate                    : 192 kb/s
Channel(s)                  : 2 channels
Channel positions           : Front: L R
Sampling rate               : 48.0 kHz
Frame rate                  : 31.250 FPS (1536 SPF)
Bit depth                   : 16 bits
Compression mode            : Lossy
Stream size                 : 182 MiB (13%)
Language                    : Russian
Service kind                : Complete Main
Default                     : Yes
Forced                      : No
x264 [info]: frame I:1583  Avg QP:16.60  size: 29971
x264 [info]: frame P:58033 Avg QP:19.02  size: 12431
x264 [info]: frame B:138949 Avg QP:21.24  size:  3979
x264 [info]: consecutive B-frames:  4.8%  8.2% 10.3% 58.9%  6.8%  6.5%  0.9%  0.8%  1.2%  0.2%  0.3%  0.1%  0.1%  0.1%  0.8%
x264 [info]: mb I  I16..4:  5.6% 72.4% 22.0%
x264 [info]: mb P  I16..4:  1.2% 14.7%  3.0%  P16..4: 34.8% 29.1% 14.1%  0.0%  0.0%    skip: 3.1%
x264 [info]: mb B  I16..4:  0.1%  1.4%  0.5%  B16..8: 38.6% 15.0%  4.4%  direct: 5.4%  skip:34.6%  L0:38.0% L1:44.2% BI:17.8%
x264 [info]: 8x8 transform intra:75.9% inter:62.9%
x264 [info]: coded y,uvDC,uvAC intra: 88.3% 86.2% 62.6% inter: 25.7% 23.5% 11.8%
x264 [info]: i16 v,h,dc,p: 19% 15%  5% 61%
x264 [info]: i8 v,h,dc,ddl,ddr,vr,hd,vl,hu: 12% 14%  4%  8% 12% 12% 13% 11% 14%
x264 [info]: i4 v,h,dc,ddl,ddr,vr,hd,vl,hu: 11% 11%  3%  8% 14% 14% 14% 11% 13%
x264 [info]: i8c dc,h,v,p: 35% 27% 19% 19%
x264 [info]: Weighted P-Frames: Y:3.2% UV:1.7%
x264 [info]: ref P L0: 57.0% 12.6% 12.9%  4.4%  3.3%  2.3%  2.0%  1.1%  1.0%  0.8%  0.8%  0.6%  0.6%  0.6%  0.1%  0.0%
x264 [info]: ref B L0: 84.3%  7.4%  3.0%  1.5%  1.0%  0.8%  0.6%  0.4%  0.3%  0.3%  0.2%  0.2%  0.1%
x264 [info]: ref B L1: 96.9%  3.1%
x264 [info]: kb/s:1331.33


Трекер:  [ 15-Июн-2018 16:54 ]

  

Скачать .torrent

Размер .torrent файла 14 KB


Размер: 1.41 GB
Хэш (hash) релиза: 98e85b55da06050e5bf7b2b788224c6c2cdaf133
Подписка на обновления:

Торренты, похожие на Тренер скачать торрент

Форум Название Автор Размер S L Добавлен
Российские фильмы 2016-2018 (Новинки русского кино) ·%· Тренер (2018) HDTVRip от Files-x Galfimbul 22066790402.06 GB 0 0 1531692011

01:00

16-Июл-18

Российские фильмы 2016-2018 (Новинки русского кино) ·· Тренер (2018) WEB-DLRip от Scarabey | iTunes Galfimbul 835393536797 MB 0 0 1529166015

19:20

16-Июн-18

Российские фильмы 2016-2018 (Новинки русского кино) ·· Тренер (2018) WEB-DLRip-AVC | iTunes Galfimbul 15580471681.45 GB 6 0 1529161852

18:10

16-Июн-18

Российские фильмы до 2016 ·· Тренер (Данила Козловский) [2018, Россия, драма, спорт, WEB-DL 1080p] Original Rus Galfimbul 50397106664.69 GB 5 0 1529118109

06:01

16-Июн-18

Российские фильмы 2016-2018 (Новинки русского кино) ·· Тренер (2018) WEB-DLRip от Scarabey | iTunes Galfimbul 15531909121.45 GB 2 0 1529089613

22:06

15-Июн-18

Российские фильмы 2016-2018 (Новинки русского кино) ·· Тренер (2018) WEB-DLRip от Scarabey | iTunes Galfimbul 23382179842.18 GB 0 0 1529087590

21:33

15-Июн-18

Российские фильмы 2016-2018 (Новинки русского кино) ·· Тренер (2018) WEB-DLRip от Generalfilm | КПК | iTunes Galfimbul 527938780503 MB 0 0 1529010030

00:00

15-Июн-18

Российские фильмы до 2016 ·%· Тренер (Данила Козловский) [2018, драма, спорт, WEB-DLRip] Galfimbul 15711293441.46 GB 0 0 1528993449

19:24

14-Июн-18

Российские фильмы 2016-2018 (Новинки русского кино) ·%· Тренер (2018) WEB-DLRip от GeneralFilm | iTunes Galfimbul 11710914561.09 GB 0 0 1528990908

18:41

14-Июн-18

Российские фильмы 2016-2018 (Новинки русского кино) ·%· Тренер (2018) WEB-DLRip-AVC от ExKinoRay | iTunes Galfimbul 782870665747 MB 0 0 1528986195

17:23

14-Июн-18

Российские фильмы 2016-2018 (Новинки русского кино) ·%· Тренер (2018) WEB-DLRip-AVC от OlLanDGroup | iTunes Galfimbul 23389651922.18 GB 0 0 1528962157

10:42

14-Июн-18

Российские фильмы 2016-2018 (Новинки русского кино) ·%· Тренер (2018) WEB-DL 720p | iTunes Galfimbul 43422556574.04 GB 0 0 1528947121

06:32

14-Июн-18

Российские фильмы до 2016 ·%· Тренер (Данила Козловский) [2018, драма, спорт, WEB-DLRip] Galfimbul 23433072642.18 GB 0 0 1528943049

05:24

14-Июн-18

Российские фильмы 2016-2018 (Новинки русского кино) ·%· Тренер (2018) WEB-DLRip от MegaPeer | iTunes Galfimbul 23433072642.18 GB 3 0 1528928445

01:20

14-Июн-18

Российские фильмы 2016-2018 (Новинки русского кино) ·%· Тренер (2018) WEB-DLRip от MegaPeer | iTunes Galfimbul 15683502081.46 GB 4 0 1528925929

00:38

14-Июн-18

Российские фильмы 2016-2018 (Новинки русского кино) ·%· Тренер (2018) WEB-DL 1080p | iTunes Galfimbul 50397215454.69 GB 8 2 1528925920

00:38

14-Июн-18

Зарубежные фильмы до 2016 ·· Тренер / McFarland, USA (Ники Каро / Niki Caro) [2015, США, Драма, биография, спорт, DVD9] R5 MVO + Sub Rus + Original Eng Galfimbul 70829711366.6 GB 0 0 1525451455

19:30

4-Май-18

Зарубежные фильмы до 2016 ·· Тренер / McFarland, USA (Ники Каро / Nici Caro) [2015, США, драма, биография, спорт, SATRip] [Open Matte] MVO + Original (Eng) + MVO (Kaz) Galfimbul 23525683202.19 GB 0 0 1506592870

13:01

28-Сен-17

Зарубежные фильмы 2016-2018 (Новинки зарубежного кино) ·· Тренер-убийца / Killer Coach (Ли Фридлендер) [2016, триллер, драма, криминал, HDTVRip 720р] Galfimbul 27513645952.56 GB 0 0 1486120574

14:16

3-Фев-17

Еще никто не оставлял запись к записи скачать торрент Тренер . Будь первым!

!Обратная связь