Traffic Light | Profiling Paris | Matthew McConaughey

Скачать через торрент Моя революция Фильм бесплатно в хорошем качестве torrent

Скачивайте на UnionPeer.org фильмы через торрент без регистрации. Новинки кино в хорошем качестве через торрент. На UnionPeer.org можно скачать через торрент фильмы 2014 и 2015 годов. Самые новые фильмы.

Скачать торрент Моя революция бесплатно через .torrent фильм мультфильм сериал

Статистика раздачи
Размер:  1.45 GB   |    Зарегистрирован:  1 год 8 месяцев   |    .torrent скачан:  480 раз   |   
Раздают:  1  
   
загрузка...
 
Автор Сообщение

Galfimbul

avatar Galfimbul


Моя революция



[b]Год выпуска:
2016
Жанр: Драма, приключения, триллер
Режиссер: Александр Карпиловский
В ролях: Иван Жидков, Владимир Епифанцев, Игорь Миркурбанов, Елизавета Саксина, Макс Уральский, Анна Носатова, Максим Сапрыкин

О фильме:
Артур – тридцатилетний житель мегаполиса с обычными проблемами типа нехватки денег, отсутствия взаимопонимания с бывшей женой, матерью его ребёнка, и самодурства деспота-начальника. Он пишет речи для кандидата в народные избранники и обладателя машины с «мигалкой», прилежно соблюдая известные каждому правила игры в больших и маленьких людей. Но всё меняется, когда судьба сводит его со случайным попутчиком. Конфликт интеллигентного клерка с помешанным на войне психопатом даёт старт игре, ставка в которой - жизнь...

Страна: Россия
Студия: Энджи Продакшн
Продолжительность: 01:34:49
Перевод: Не требуется

Файл
Формат: avi
Качество: HDTVRip
Видео: XviD build 73, 720x400 (2.35:1), 25.000 fps, 1993 Kbps (0.277 bit/pixel)
Звук: 48.0 kHz, AC3, 2/0 ch, 192 kbps
Субтитры: нет
General
Complete name : Moja.Revoljucija.2016.XviD.HDTVRip.GeneralFilm.avi
Format : AVI
Format/Info : Audio Video Interleave
File size : 1.45 GiB
Duration : 1h 34mn
Overall bit rate : 2 195 Kbps
Writing application : VirtualDubMod 1.5.10.3 | www.virtualdub-fr.org || (build 2550/release)
Writing library : VirtualDubMod build 2550/release

Video
ID : 0
Format : MPEG-4 Visual
Format profile : Advanced [email protected]
Format settings, BVOP : 1
Format settings, QPel : No
Format settings, GMC : No warppoints
Format settings, Matrix : Custom
Codec ID : XVID
Codec ID/Hint : XviD
Duration : 1h 34mn
Bit rate : 1 993 Kbps
Width : 720 pixels
Height : 400 pixels
Display aspect ratio : 16:9
Frame rate : 25.000 fps
Color space : YUV
Chroma subsampling : 4:2:0
Bit depth : 8 bits
Scan type : Progressive
Compression mode : Lossy
Bits/(Pixel*Frame) : 0.277
Stream size : 1.32 GiB (91%)
Writing library : XviD 73

Audio
ID : 1
Format : AC-3
Format/Info : Audio Coding 3
Mode extension : CM (complete main)
Format settings, Endianness : Big
Codec ID : 2000
Duration : 1h 34mn
Bit rate mode : Constant
Bit rate : 192 Kbps
Channel(s) : 2 channels
Channel positions : Front: L R
Sampling rate : 48.0 KHz
Frame rate : 31.250 fps (1536 spf)
Compression mode : Lossy
Stream size : 130 MiB (9%)
Alignment : Split accross interleaves
Interleave, duration : 40 ms (1.00 video frame)
Interleave, preload duratio : 500 ms
Релиз от:

Трекер:  [ 22-Янв-2017 13:30 ]

  

Скачать .torrent

Размер .torrent файла 15 KB


Размер: 1.45 GB
Хэш (hash) релиза: 473565fb82c5d7ef054b59010f44bbbc533cf38a
Подписка на обновления:

Еще никто не оставлял запись к записи скачать торрент Моя революция . Будь первым!

!Обратная связь