Historique | More Details | Mi Band Notify V2

Скачать через торрент Суперплохие Фильм бесплатно в хорошем качестве torrent

Скачивайте на UnionPeer.org фильмы через торрент без регистрации. Новинки кино в хорошем качестве через торрент. На UnionPeer.org можно скачать через торрент фильмы 2014 и 2015 годов. Самые новые фильмы.

Скачать торрент Суперплохие бесплатно через .torrent фильм мультфильм сериал

Статистика раздачи
Размер:  744 MB   |    Зарегистрирован:  1 год 11 месяцев   |    .torrent скачан:  1174 раза   |   
Раздают:  1  
   
загрузка...
 
Автор Сообщение

Galfimbul

avatar Galfimbul


Суперплохие



[b]Год выхода:
2016
Жанр: Комедия
Режиссер: Дмитрий Суворов
В ролях: Данила Якушев, Анна Чиповская, Александр Соколовский, Александр Ревва, Ян Цапник, Александр Ляпин, Александр Цой, Карина Зверева, Кирилл Каганович, Валентина Мазунина

О фильме:
На что ты готов ради своей девушки?… А если она проститутка во вьетнамском борделе? А если его владелец хочет вышибить тебе мозги? А если ты должен кучу бабок местному нарко-барыге? Главному герою Диме предстоит провернуть аферу всей его жизни. Но как это сделать, когда тебя окружают самые неподходящие для этого люди? Они — суперплохие герои нашего времени. Встречайте команду мечты: Сексмашина, Цыпочка, Барыга, Стерва, Выживший, Ниндзя и Гопник.


Страна: Россия
Студия: КиноФирма
Продолжительность: 01:14:23
Перевод: Не требуется

Файл
Качество: WEB-DLRip
Кодек: XviD
Видео: 688x288 (2,40:1), 24 fps, XviD ~ 1262 kbps avg, 0.265 bit/pixel
Аудио: MP3, 48 kHz, 2 ch, ~128.00 kbps avg | русский | [iTunes]
Субтитры: Отсутствуют
Семпл
Общее
Полное имя : SuperPloXie.2O16.O.WEB-DLRip.745Mb.avi
Формат : AVI
Формат/Информация : Audio Video Interleave
Размер файла : 744 Мбайт
Продолжительность : 1 ч. 14 м.
Общий поток : 1399 Кбит/сек
Программа кодирования : VirtualDubMod 1.5.10.3 (build 2550/release)
Библиотека кодирования : VirtualDubMod build 2550/release

Видео
Идентификатор : 0
Формат : MPEG-4 Visual
Профиль формата : Advanced [email protected]
Параметр BVOP формата : 2
Параметр QPel формата : Нет
Параметр GMC формата : Без точки перехода
Параметр матрицы формата : Выборочная
Идентификатор кодека : XVID
Идентификатор кодека/Подсказка : XviD
Продолжительность : 1 ч. 14 м.
Битрейт : 1262 Кбит/сек
Ширина : 688 пикселей
Высота : 288 пикселей
Соотношение сторон : 2,40:1
Частота кадров : 24,000 кадра/сек
Цветовое пространство : YUV
Субдискретизация насыщенности : 4:2:0
Битовая глубина : 8 бит
Тип развёртки : Прогрессивная
Метод сжатия : С потерями
Бит/(Пиксели*Кадры) : 0.265
Размер потока : 671 Мбайт (90%)
Библиотека кодирования : XviD 73

Аудио
Идентификатор : 1
Формат : MPEG Audio
Версия формата : Version 1
Профиль формата : Layer 3
Режим : Joint stereo
Расширение режима : MS Stereo
Идентификатор кодека : 55
Идентификатор кодека/Подсказка : MP3
Продолжительность : 1 ч. 14 м.
Вид битрейта : Постоянный
Битрейт : 128 Кбит/сек
Каналы : 2 канала
Частота : 48,0 КГц
Метод сжатия : С потерями
Размер потока : 68,1 Мбайт (9%)
Выравнивание : Соединение по промежуткам
Продолжительность промежутка : 42 мс. (1,00 видеокадр)
Время предзагрузки промежутка : 504 мс.


Трекер:  [ 04-Ноя-2016 06:30 ]

  

Скачать .torrent

Размер .torrent файла 15 KB


Размер: 744 MB
Хэш (hash) релиза: d279ab5cf70355f8df5cd2350e8a6636facd4ebc
Подписка на обновления:

Еще никто не оставлял запись к записи скачать торрент Суперплохие . Будь первым!

!Обратная связь