amazing makeup | Top 20 des animes les plus attendus cet été par les spectateurs japonais | Joe Pantoliano

Скачать через торрент Норм и Несокрушимые Norm of the North Фильм бесплатно в хорошем качестве torrent

Скачивайте на UnionPeer.org фильмы через торрент без регистрации. Новинки кино в хорошем качестве через торрент. На UnionPeer.org можно скачать через торрент фильмы 2014 и 2015 годов. Самые новые фильмы.

Скачать торрент Норм и Несокрушимые Norm of the North бесплатно через .torrent фильм мультфильм сериал

Статистика раздачи
Размер:  2.25 GB   |    Зарегистрирован:  2 года 5 месяцев   |    .torrent скачан:  1304 раза   |   
Раздают:  1  
   
загрузка...
 
Автор Сообщение

Galfimbul

avatar Galfimbul


Норм и Несокрушимые /Norm of the North

Год выхода: 2016
Жанр: мультфильм, комедия, приключения, семейный
Режиссер: Тревор Уолл / Trevor Wall
В ролях: Роб Шнайдер, Хезер Грэм, Кен Жонг, Билл Найи, Колм Мини, Лоретта Дивайн, Майкл МакЭлхаттон, Майя Кэй, Габриэль Иглесиас, Салом Дженс

О фильме:
Встречайте! Норм и Несокрушимые — добродушный белый медведь и шустрые лемминги. Их миссия — спасти родную Арктику от коварной корпорации. Могущественный босс Мистер Грин задумал построить здесь, среди чистых льдов, город богачей, и пушистый отряд должен дать противнику бой на его территории. Норм и Несокрушимые отправляются прямо в каменные джунгли мегаполиса. Их обаяние, отвага, шутки и танцы — особенно зажигательный «Арктик Шейк» — растопят сердца горожан, но для победы мало просто стать звёздами. Впереди — настоящие испытания и вихрь приключений.

Страна: Индия, США
Продолжительность: 01:30:31
Перевод: Профессиональный (полное дублирование) [iTunes]

Файл
Кодек: x264
Качество: BDRip 720p
Видео: 1280х690 (1.85:1), 23,976 fps, AVC (H.264), [email protected], ~3097 Kbps avg, 0.146 bit/pixel
Звук: 48 kHz, AC3 Dolby Digital, 3/2 (L,C,R,l,r) + LFE ch, ~384.00 kbps avg
General
Unique ID : 174267486732217433872710032553806691967 (0x831AB27558C03D74A4EDE91096DC7E7F)
Complete name : J:СборкаНорм и Несокрушимые. - Norm.of.the.North.2016.720p.BDRiP.x264.mkv
Format : Matroska
Format version : Version 4 / Version 2
File size : 2.25 GiB
Duration : 1h 30mn
Overall bit rate : 3 552 Kbps
Encoded date : UTC 2016-04-23 20:36:59
Writing application : mkvmerge v7.3.0 ('Nouages') 32bit built on Oct 22 2014 18:44:01
Writing library : libebml v1.3.0 + libmatroska v1.4.1
_STATISTICS_WRITING_APP : mkvmerge v7.3.0 ('Nouages') 32bit built on Oct 22 2014 18:44:01
_STATISTICS_WRITING_DATE_UTC : 2016-04-23 20:36:59
_STATISTICS_TAGS : BPS DURATION NUMBER_OF_FRAMES NUMBER_OF_BYTES
DURATION : 01:30:31.392000000
NUMBER_OF_FRAMES : 169731
NUMBER_OF_BYTES : 260706816
Video #1
ID : 1
Format : AVC
Format/Info : Advanced Video Codec
Format profile : [email protected]
Format settings, CABAC : Yes
Format settings, ReFrames : 9 frames
Codec ID : V_MPEG4/ISO/AVC
Duration : 1h 30mn
Bit rate : 3 097 Kbps
Width : 1 280 pixels
Height : 690 pixels
Display aspect ratio : 1.85:1
Frame rate mode : Constant
Frame rate : 23.976 fps
Color space : YUV
Chroma subsampling : 4:2:0
Bit depth : 8 bits
Scan type : Progressive
Bits/(Pixel*Frame) : 0.146
Stream size : 1.96 GiB (87%)
Writing library : x264 core 142 r2431+42 c69a006 tMod [[email protected] X86_64]
Encoding settings : cabac=1 / ref=9 / deblock=1:-1:-1 / analyse=0x3:0x133 / me=umh / subme=11 / psy=1 / fade_compensate=0.00 / psy_rd=0.40:0.00 / mixed_ref=1 / me_range=32 / chroma_me=1 / trellis=2 / 8x8dct=1 / cqm=0 / deadzone=21,11 / fast_pskip=0 / chroma_qp_offset=-2 / threads=60 / lookahead_threads=5 / sliced_threads=0 / nr=0 / decimate=0 / interlaced=0 / bluray_compat=0 / constrained_intra=0 / fgo=0 / bframes=8 / b_pyramid=2 / b_adapt=2 / b_bias=0 / direct=3 / weightb=1 / open_gop=0 / weightp=2 / keyint=240 / keyint_min=23 / scenecut=40 / intra_refresh=0 / rc_lookahead=60 / rc=crf / mbtree=0 / crf=17.5000 / qcomp=0.60 / qpmin=0:0:0 / qpmax=69:69:69 / qpstep=4 / vbv_maxrate=40000 / vbv_bufsize=30000 / crf_max=0.0 / nal_hrd=none / filler=0 / ip_ratio=1.40 / pb_ratio=1.30 / aq=1:0.60 / aq-sensitivity=10.00 / aq-factor=1.00:1.00:1.00 / aq2=0 / aq3=0
Default : Yes
Forced : No
Audio #2
ID : 2
Format : AC-3
Format/Info : Audio Coding 3
Mode extension : CM (complete main)
Format settings, Endianness : Big
Codec ID : A_AC3
Duration : 1h 30mn
Bit rate mode : Constant
Bit rate : 384 Kbps
Channel(s) : 6 channels
Channel positions : Front: L C R, Side: L R, LFE
Sampling rate : 48.0 KHz
Bit depth : 16 bits
Compression mode : Lossy
Stream size : 249 MiB (11%)
Title : iTunes
Language : Russian
Default : Yes
Forced : No
x264 [info]: frame I:1225 Avg QP:13.92 size:113819
x264 [info]: frame P:40167 Avg QP:16.50 size: 30019
x264 [info]: frame B:99372 Avg QP:19.13 size: 10931
x264 [info]: consecutive B-frames: 5.7% 6.0% 21.9% 25.5% 15.4% 17.4% 2.6% 5.0% 0.6%


Трекер:  [ 24-Апр-2016 00:00 ]

  

Скачать .torrent

Размер .torrent файла 11 KB


Размер: 2.25 GB
Хэш (hash) релиза: b62113acbeaa535142c23ffbb5eff8266b907e17
Подписка на обновления:

Торренты, похожие на Норм и Несокрушимые Norm of the North скачать торрент

Форум Название Автор Размер S L Добавлен
Мультфильмы до 2016 ·· Норм и Несокрушимые / Norm of the North (Тревор Уолл / Trevor Wall) [2016, Индия, США, мультфильм, комедия, приключения, семейный, WEBRip 720p] (Локализованный видеоряд) DUB (iTunes) + UKR + Original (Eng) + Sub (rus, ukr, eng) Galfimbul 26238170362.44 GB 0 0 1500356190

08:36

18-Июл-17

Мультфильмы до 2016 ·· Норм и Несокрушимые / Norm of the North (Тревор Уолл / Trevor Wall) [2016, Индия, США, мультфильм, комедия, приключения, семейный, BDRip] Dub (iTunes) Galfimbul 780048384744 MB 0 0 1461822895

08:54

28-Апр-16

Мультфильмы до 2016 ·· Норм и Несокрушимые / Norm of the North (Тревор Уолл / Trevor Wall) [2016, Индия, США, мультфильм, комедия, приключения, семейный, BDRip-AVC] DUB (iTunes) + Original (Eng) + Sub (eng) Galfimbul 27730852702.58 GB 0 0 1461792563

00:29

28-Апр-16

Мультфильмы до 2016 ·· Норм и Несокрушимые / Norm of the North (Тревор Уолл) [2016, Индия, США, мультфильм, комедия, приключения, семейный, BDRip 1080p] Dub (iTunes) + Original Eng + Sub Eng Galfimbul 64934004186.05 GB 0 0 1461785094

22:24

27-Апр-16

Мультфильмы до 2016 ·· Норм и Несокрушимые / Norm of the North (Тревор Уолл / Trevor Wall) [2016, Индия, США, мультфильм, комедия, приключения, семейный, BDRip] Dub (iTunes) + Original Eng + Sub Eng Galfimbul 15674520801.46 GB 0 0 1461777736

20:22

27-Апр-16

Мультфильмы до 2016 ·· Норм и Несокрушимые / Norm of the North (Тревор Уолл / Trevor Wall) [2016, Индия, США, мультфильм, комедия, приключения, семейный, BDRip 720p] DUB (iTunes) + Original (Eng) + Sub (eng) Galfimbul 40233623083.75 GB 0 0 1461756879

14:34

27-Апр-16

Мультфильмы до 2016 ·· Норм и Несокрушимые / Norm of the North (Тревор Уолл / Trevor Wall) [2016, Индия, США, мультфильм, комедия, приключения, семейный, BDRemux 1080] DUB (iTunes) + Original (Eng) + Sub (eng) Galfimbul 1419464820413.22 GB 0 0 1461677211

16:26

26-Апр-16

Мультфильмы до 2016 ·· Норм и Несокрушимые / Norm of the North (Тревор Уолл) [2016, Индия, США, мультфильм, комедия, приключения, семейный, BDRip 1080p] DUB + Original (Eng) Galfimbul 27327173302.55 GB 0 0 1461432701

20:31

23-Апр-16

Мультфильмы до 2016 ·· Норм и Несокрушимые / Norm of the North (Тревор Уолл / Trevor Wall) [2016, Индия, США, мультфильм, комедия, приключения, семейный, WEB-DL 720p] DUB + Original (Eng) + Sub (eng) Galfimbul 30978830432.89 GB 0 0 1461403393

12:23

23-Апр-16

Мультфильмы до 2016 ·· Норм и Несокрушимые / Norm of the North (Тревор Уолл / Trevor Wall) [2016, Индия, США, мультфильм, комедия, приключения, семейный, WEB-DL 720p] DUB + Original (Eng) + Sub (eng) Galfimbul 30978830442.89 GB 0 0 1459677366

12:56

3-Апр-16

Мультфильмы 2016-2018 (Новинки мультфильмов) ·· Норм и Несокрушимые / Norm of the North (Тревор Уолл) [2016, мультфильм, комедия, приключения, семейный, WEB-DL 720p] Galfimbul 30978704082.89 GB 0 0 1459295104

02:45

30-Мар-16

Еще никто не оставлял запись к записи скачать торрент Норм и Несокрушимые Norm of the North . Будь первым!

!Обратная связь